Backstreet Boys Serenade Jill + Talk 'Don't Go Breaking My Heart' New... | Law Of The Jungle In Costa Rica Ep 122 | Computer Organization - 1360 Words


Black Panther 2018 720p HD-TS Hindi Dubbed X264 AAC

Torrent Details

Black Panther 2018 720p HD-TS Hindi Dubbed x264 AAC

NAME
Black Panther 2018 720p HD-TS Hindi Dubbed x264 AAC.torrent
CATEGORY
Movies
INFOHASH
7148da5d42b19d66e07a556e3216824110453979
SIZE
1.3 GB in 1 file
ADDED
Uploaded on 19-02-2018 by our crawler pet called "Spidey".
SWARM
0 seeders & 0 peers
RATING
No votes yet.

Please login to vote for this torrent.


Description




General
Format : Matroska
Format version : Version 4 / Version 2
File size : 1.31 GiB
Duration : 2 h 2 min
Overall bit rate : 1 528 kb/s

Video
ID : 1
Format : AVC
Format/Info : Advanced Video Codec
Format profile : [email protected]
Format settings : CABAC / 4 Ref Frames
Format settings, CABAC : Yes
Format settings, ReFrames : 4 frames
Codec ID : V_MPEG4/ISO/AVC
Duration : 2 h 2 min
Bit rate : 1 400 kb/s
Width : 1 280 pixels
Height : 460 pixels
Display aspect ratio : 2.783
Frame rate mode : Constant
Frame rate : 23.976 (24000/1001) FPS
Color space : YUV
Chroma subsampling : 4:2:0
Bit depth : 8 bits
Scan type : Progressive
Bits/(Pixel*Frame) : 0.099
Stream size : 1.19 GiB (91%)
Writing library : x264 core 148 r2708 86b7198
Default : Yes
Forced : No

Audio
ID : 2
Format : AAC
Format/Info : Advanced Audio Codec
Format profile : LC
Codec ID : A_AAC-2
Duration : 2 h 2 min
Bit rate : 128 kb/s
Channel(s) : 2 channels
Channel positions : Front: L R
Sampling rate : 44.1 kHz
Frame rate : 43.066 FPS (1024 SPF)
Compression mode : Lossy
Stream size : 112 MiB (8%)
Language : Hindi
Default : Yes
Forced : No












Discussion

Comments 0

Post Your Comment

Files in this torrent

FILENAMESIZE
Black Panther 2018 720p HD-TS Hindi Dubbed x264 AAC.mkv1.3 GB

Alternative Torrents for ''.

There are no alternative torrents found.