RAW Heavy Sweetness, Ash-like Frost 5 hours ago EP 26 | After Effects Project - VideoHive The Clouds CS4 Trailer 102873 | • The Confession Tapes (Türkçe Dubl 7.7


Black Panther 2018 NEW HD-TS X264 Hindi

Torrent Details

Black Panther 2018 NEW HD-TS x264 Hindi

NAME
Black Panther 2018 NEW HD-TS x264 Hindi.torrent
CATEGORY
Movies
INFOHASH
5441d66f6031746ffbe62768c58768701f9c73f2
SIZE
856 MB in 2 files
ADDED
Uploaded on 22-02-2018 by our crawler pet called "Spidey".
SWARM
0 seeders & 0 peers
RATING
No votes yet.

Please login to vote for this torrent.


Description

******************************Thumbnail:**********************



******************************Screenshots:********************

Screenshot 1

Screenshot 2

Screenshot 3

Screenshot 4

Screenshot 5

Screenshot 6

Screenshot 7

Screenshot 8

Screenshot 9

Screenshot 0

**************************************************************

Complete name : Black.Panther.2018.NEW.HD-TS.x264.Hindi.LLG.mp4
Format : MPEG-4
Format profile : Base Media
Codec ID : isom (isom/iso2/avc1/mp41)
File size : 848 MiB
Duration : 2 h 2 min
Overall bit rate : 970 kb/s
Writing application : Lavf57.56.101

Video
ID : 1
Format : AVC
Format/Info : Advanced Video Codec
Format profile : [email protected]
Format settings : CABAC / 4 Ref Frames
Format settings, CABAC : Yes
Format settings, RefFrames : 4 frames
Codec ID : avc1
Codec ID/Info : Advanced Video Coding
Duration : 2 h 2 min
Bit rate : 900 kb/s
Width : 1 280 pixels
Height : 460 pixels
Display aspect ratio : 2.783
Frame rate mode : Constant
Frame rate : 23.976 (23976/1000) FPS
Color space : YUV
Chroma subsampling : 4:2:0
Bit depth : 8 bits
Scan type : Progressive
Bits/(Pixel*Frame) : 0.064
Stream size : 786 MiB (93%)

Audio
ID : 2
Format : AAC
Format/Info : Advanced Audio Codec
Format profile : LC
Codec ID : mp4a-40-2
Duration : 2 h 2 min
Bit rate mode : Constant
Bit rate : 64.5 kb/s
Channel(s) : 2 channels
Channel positions : Front: L R
Sampling rate : 48.0 kHz
Frame rate : 46.875 FPS (1024 SPF)
Compression mode : Lossy
Stream size : 56.5 MiB (7%)
Language : Hindi
Default : Yes
Alternate group : 1

Discussion

Comments 0

Post Your Comment

Files in this torrent

FILENAMESIZE
Black.Panther.2018.NEW.HD-TS.x264.Hindi.LLG.mp4848 MB
Sample.mp48.3 MB

Alternative Torrents for 'Black Panther Hindi'.

There are no alternative torrents found.