Full TV Series Arthur Cartoon | Anne-Marie - 2002 | No Home for Young Man (2018)


Black Panther 2018 NEW HDTS-X264 Clean MP3 English Audio

Torrent Details

Black Panther 2018 NEW HDTS-X264 Clean MP3 English Audio

NAME
Black Panther 2018 NEW HDTS-X264 Clean MP3 English Audio.torrent
CATEGORY
Movies
INFOHASH
6986cb799921b0d0670ea59555f73ff08faac6d1
SIZE
912 MB in 2 files
ADDED
Uploaded on 23-02-2018 by our crawler pet called "Spidey".
SWARM
0 seeders & 0 peers
RATING
No votes yet.

Please login to vote for this torrent.


Description



Plot: After the events of Captain America: Civil War, King T’Challa returns home to the reclusive, technologically advanced African nation of Wakanda to serve as his country’s new leader. However, T’Challa soon finds that he is challenged for the throne from factions within his own country. When two foes conspire to destroy Wakanda, the hero known as Black Panther must team up with C.I.A. agent Everett K. Ross and members of the Dora Milaje, Wakandan special forces, to prevent Wakanda from being dragged into a world war.

Genre: Action | Adventure | Sci-Fi
IMDB Rating: 7.6/10 from 32,755 users
Directed by: Ryan Coogler
Starring: Chadwick Boseman, Michael B. Jordan, Lupita Nyong’o
Source : Black Panther 2018 FULL HDCAM ENG X264-UNiQUE

Format                                   : MPEG-4
Format profile                           : Base Media
Codec ID                                 : isom (isom/iso2/avc1/mp41)
File size                                : 906 MiB
Duration                                 : 2 h 2 min
Overall bit rate                         : 1 034 kb/s
Movie name                               : Black Panther (2018) ENG NEW HDTS-X264-MP3-Zi$t
Writing application                      : Lavf57.56.101

Video
ID                                       : 1
Format                                   : AVC
Format/Info                              : Advanced Video Codec
Format profile                           : [email protected]
Format settings                          : CABAC / 4 Ref Frames
Format settings, CABAC                   : Yes
Format settings, RefFrames               : 4 frames
Codec ID                                 : avc1
Codec ID/Info                            : Advanced Video Coding
Duration                                 : 2 h 2 min
Bit rate                                 : 900 kb/s
Width                                    : 720 pixels
Height                                   : 354 pixels
Display aspect ratio                     : 2.034
Frame rate mode                          : Constant
Frame rate                               : 29.970 (29970/1000) FPS
Color space                              : YUV
Chroma subsampling                       : 4:2:0
Bit depth                                : 8 bits
Scan type                                : Progressive
Bits/(Pixel*Frame)                       : 0.118
Stream size                              : 789 MiB (87%)

Audio
ID                                       : 2
Format                                   : MPEG Audio
Format version                           : Version 1
Format profile                           : Layer 3
Format settings                          : Joint stereo / MS Stereo
Codec ID                                 : mp4a-6B
Duration                                 : 2 h 2 min
Duration_LastFrame                       : -17 ms
Bit rate mode                            : Constant
Bit rate                                 : 128 kb/s
Channel(s)                               : 2 channels
Sampling rate                            : 48.0 kHz
Compression mode                         : Lossy
Stream size                              : 112 MiB (12%)
Writing library                          : LAME3.99.5
Language                                 : English
Default                                  : Yes
Alternate group                          : 1


Discussion

Comments 0

Post Your Comment

Files in this torrent

FILENAMESIZE
Black.Panther.2018.NEW.HDTS-X264.Clean.MP3.English.Audio.LLG.mp4906.4 MB
Sample.ts5.7 MB

Alternative Torrents for 'Black Panther HDTS- Clean English Audio'.

There are no alternative torrents found.