きゅっきゅぽん | Apartment 212 2017.HDRip.XviD.AC3-EVO[Et... | Sélectionnez une catégorie:


Black Panther 2018 720p New HDTS X264 MP3 128kbps

Torrent Details

Black Panther 2018 720p New HDTS X264 MP3 128kbps

NAME
Black Panther 2018 720p New HDTS X264 MP3 128kbps.torrent
CATEGORY
Movies
INFOHASH
33b2d77c577541308af1a5855916d578be7fd746
SIZE
1.1 GB in 2 files
ADDED
Uploaded on 05-03-2018 by our crawler pet called "Spidey".
SWARM
0 seeders & 0 peers
RATING
No votes yet.

Please login to vote for this torrent.


Description

******************************Thumbnail:**********************



******************************Screenshots:********************

Screenshot 1

Screenshot 2

Screenshot 3

Screenshot 4

Screenshot 5

Screenshot 6

Screenshot 7

Screenshot 8

Screenshot 9

Screenshot 0

**************************************************************

Complete name : Black.Panther.2018.720p.New.HDTS.X264.MP3.128kbps.LLG.mp4
Format : MPEG-4
Format profile : Base Media
Codec ID : isom (isom/iso2/avc1/mp41)
File size : 1.13 GiB
Duration : 2 h 1 min
Overall bit rate : 1 331 kb/s
Writing application : Lavf57.56.101

Video
ID : 1
Format : AVC
Format/Info : Advanced Video Codec
Format profile : [email protected]
Format settings : CABAC / 4 Ref Frames
Format settings, CABAC : Yes
Format settings, RefFrames : 4 frames
Codec ID : avc1
Codec ID/Info : Advanced Video Coding
Duration : 2 h 1 min
Bit rate : 1 200 kb/s
Width : 1 280 pixels
Height : 500 pixels
Display aspect ratio : 2.560
Frame rate mode : Constant
Frame rate : 29.970 (29970/1000) FPS
Color space : YUV
Chroma subsampling : 4:2:0
Bit depth : 8 bits
Scan type : Progressive
Bits/(Pixel*Frame) : 0.063
Stream size : 1.01 GiB (90%)

Audio
ID : 2
Format : MPEG Audio
Format version : Version 1
Format profile : Layer 3
Format settings : Joint stereo / MS Stereo
Codec ID : mp4a-6B
Duration : 2 h 1 min
Duration_LastFrame : -9 ms
Bit rate mode : Constant
Bit rate : 128 kb/s
Channel(s) : 2 channels
Sampling rate : 48.0 kHz
Compression mode : Lossy
Stream size : 111 MiB (10%)
Writing library : LAME3.99.5
Default : Yes
Alternate group : 1

Discussion

Comments 0

Post Your Comment

Files in this torrent

FILENAMESIZE
Black.Panther.2018.720p.New.HDTS.X264.MP3.128kbps.LLG.mp41.1 GB
Sample.ts16.6 MB

Alternative Torrents for ''.

There are no alternative torrents found.