Regarder Golden Exits en Streaming Gratuit | Blood Honey | Biographies and Memoirs


Black Panther 2018 720p TS X264 AAC

Torrent Details

Black Panther 2018 720p TS x264 AAC

NAME
Black Panther 2018 720p TS x264 AAC.torrent
CATEGORY
Movies
INFOHASH
5a57ed49948a2a97c5c7901c722631f4a42e48f4
SIZE
1.1 GB in 1 file
ADDED
Uploaded on 11-03-2018 by our crawler pet called "Spidey".
SWARM
0 seeders & 0 peers
RATING
No votes yet.

Please login to vote for this torrent.


Description





General
Format : Matroska
Format version : Version 4 / Version 2
File size : 1.15 GiB
Duration : 2 h 3 min
Overall bit rate : 1 326 kb/s

Video
ID : 1
Format : AVC
Format/Info : Advanced Video Codec
Format profile : [email protected]
Format settings : CABAC / 4 Ref Frames
Format settings, CABAC : Yes
Format settings, RefFrames : 4 frames
Codec ID : V_MPEG4/ISO/AVC
Duration : 2 h 3 min
Bit rate : 1 200 kb/s
Width : 1 280 pixels
Height : 456 pixels
Display aspect ratio : 2.807
Frame rate mode : Constant
Frame rate : 23.976 (24000/1001) FPS
Color space : YUV
Chroma subsampling : 4:2:0
Bit depth : 8 bits
Scan type : Progressive
Bits/(Pixel*Frame) : 0.086
Stream size : 1.04 GiB (90%)
Writing library : x264 core 148 r2708 86b7198
Default : Yes
Forced : No

Audio
ID : 2
Format : AAC
Format/Info : Advanced Audio Codec
Format profile : LC
Codec ID : A_AAC-2
Duration : 2 h 3 min
Bit rate : 128 kb/s
Channel(s) : 2 channels
Channel positions : Front: L R
Sampling rate : 44.1 kHz
Frame rate : 43.066 FPS (1024 SPF)
Compression mode : Lossy
Stream size : 113 MiB (10%)
Language : English
Default : Yes
Forced : No










Discussion

Comments 0

Post Your Comment

Files in this torrent

FILENAMESIZE
Black Panther 2018 720p TS x264 AAC.mkv1.1 GB

Alternative Torrents for ''.

There are no alternative torrents found.