Heathers | Saturday.Night.Live.S43E23.Tina.Fey.and.Nicki.Minaj.720p.HDTV.x264-CRiMSON[ettv] | Deadpool 2 (2018) (Hindi)


Maze Runner The Death Cure 2017 HC HDRip XviD AC3

Torrent Details

Maze Runner The Death Cure 2017 HC HDRip XviD AC3

NAME
Maze Runner The Death Cure 2017 HC HDRip XviD AC3.torrent
CATEGORY
Movies
INFOHASH
4ac8ac27a3f26fc02b89ec877514302937469fa3
SIZE
1.1 GB in 3 files
ADDED
Uploaded on 27-03-2018 by our crawler pet called "Spidey".
SWARM
0 seeders & 0 peers
RATING
No votes yet.

Please login to vote for this torrent.


Description



******************************Thumbnail:**********************



******************************Screenshots:********************

Screenshot 1

Screenshot 2

Screenshot 3

Screenshot 4

Screenshot 5

Screenshot 6

Screenshot 7

Screenshot 8

Screenshot 9

Screenshot 0

**************************************************************

Complete name : Maze.Runner.The.Death.Cure.2017.HC.HDRip.XviD.AC3.LLG.mp4
Format : MPEG-4
Format profile : Base Media
Codec ID : isom (isom/iso2/avc1/mp41)
File size : 1.03 GiB
Duration : 2 h 22 min
Overall bit rate : 1 040 kb/s
Writing application : Lavf57.56.101

Video
ID : 1
Format : AVC
Format/Info : Advanced Video Codec
Format profile : [email protected]
Format settings : CABAC / 4 Ref Frames
Format settings, CABAC : Yes
Format settings, RefFrames : 4 frames
Codec ID : avc1
Codec ID/Info : Advanced Video Coding
Duration : 2 h 22 min
Bit rate : 900 kb/s
Width : 720 pixels
Height : 290 pixels
Display aspect ratio : 2.483
Frame rate mode : Constant
Frame rate : 23.976 (23976/1000) FPS
Color space : YUV
Chroma subsampling : 4:2:0
Bit depth : 8 bits
Scan type : Progressive
Bits/(Pixel*Frame) : 0.180
Stream size : 922 MiB (87%)

Audio
ID : 2
Format : AC-3
Format/Info : Audio Coding 3
Codec ID : ac-3
Duration : 2 h 22 min
Bit rate mode : Constant
Bit rate : 128 kb/s
Channel(s) : 2 channels
Channel positions : Front: L R
Sampling rate : 48.0 kHz
Frame rate : 31.250 FPS (1536 SPF)
Bit depth : 16 bits
Compression mode : Lossy
Stream size : 130 MiB (12%)
Title : T2_Audio - English
Service kind : Complete Main
Default : Yes
Alternate group : 1

Discussion

Comments 0

Post Your Comment

Files in this torrent

FILENAMESIZE
Maze.Runner.The.Death.Cure.2017.HC.HDRip.XviD.AC3.LLG.mp41 GB
Sample 0.ts11.3 MB
Sample.avi16.7 MB

Alternative Torrents for ''.

There are no alternative torrents found.