El Mito De Bourne BluRayRip AC3 5.1 | Bollywood 2018 | You Were Never Really Here 2017 English 720p BRRip 800MB ESubs


Maze Runner The Death Cure 2018 1080p HC HDRip X264 MP3 128kbps

Torrent Details

Maze Runner The Death Cure 2018 1080p HC HDRip x264 MP3 128kbps

NAME
Maze Runner The Death Cure 2018 1080p HC HDRip x264 MP3 128kbps.torrent
CATEGORY
Movies
INFOHASH
01da13c69ae5862e797ac2b5ff985029de8074b4
SIZE
1.6 GB in 2 files
ADDED
Uploaded on 28-03-2018 by our crawler pet called "Spidey".
SWARM
0 seeders & 0 peers
RATING
No votes yet.

Please login to vote for this torrent.


Description



******************************Thumbnail:**********************



******************************Screenshots:********************

Screenshot 1

Screenshot 2

Screenshot 3

Screenshot 4

Screenshot 5

Screenshot 6

Screenshot 7

Screenshot 8

Screenshot 9

Screenshot 0

**************************************************************

Complete name : Maze.Runner.The.Death.Cure.2018.1080p.HC.HDRip.x264.LLG.mp4
Format : MPEG-4
Format profile : Base Media
Codec ID : isom (isom/iso2/avc1/mp41)
File size : 1.62 GiB
Duration : 2 h 22 min
Overall bit rate : 1 628 kb/s
Writing application : Lavf57.56.101

Video
ID : 1
Format : AVC
Format/Info : Advanced Video Codec
Format profile : [email protected]
Format settings : CABAC / 4 Ref Frames
Format settings, CABAC : Yes
Format settings, RefFrames : 4 frames
Codec ID : avc1
Codec ID/Info : Advanced Video Coding
Duration : 2 h 22 min
Bit rate : 1 500 kb/s
Width : 1 920 pixels
Height : 1 080 pixels
Display aspect ratio : 16:9
Frame rate mode : Constant
Frame rate : 23.976 (23976/1000) FPS
Color space : YUV
Chroma subsampling : 4:2:0
Bit depth : 8 bits
Scan type : Progressive
Bits/(Pixel*Frame) : 0.030
Stream size : 1.48 GiB (92%)

Audio
ID : 2
Format : MPEG Audio
Format version : Version 1
Format profile : Layer 3
Format settings : Joint stereo / MS Stereo
Codec ID : mp4a-6B
Duration : 2 h 22 min
Bit rate mode : Constant
Bit rate : 128 kb/s
Channel(s) : 2 channels
Sampling rate : 44.1 kHz
Compression mode : Lossy
Stream size : 130 MiB (8%)
Writing library : LAME3.99.5
Default : Yes
Alternate group : 1

Discussion

Comments 0

Post Your Comment

Files in this torrent

FILENAMESIZE
Maze.Runner.The.Death.Cure.2018.1080p.HC.HDRip.x264.MP3.128kbps.LLG.mp41.6 GB
Sample.ts28.9 MB

Alternative Torrents for ''.

There are no alternative torrents found.